Gay Dance Chart Top 20 from 11 August 2019

August 11, 2019
Download podcast

FILE "19Aug1018.ogg" WAVE
TRACK 01 AUDIO
TITLE "The Sonic Busters (Original Mix)"
PERFORMER "George Privatti, Guille Placencia"
REM ALBUM "The Sonic Busters"
INDEX 01 00:28:00
TRACK 02 AUDIO
TITLE "SOL (Extended Mix)"
PERFORMER "KC Lights"
INDEX 01 07:10:00
TRACK 03 AUDIO
TITLE "Crazy About Your Love (Original Mix)"
PERFORMER "LoveHrtz"
INDEX 01 12:20:00
TRACK 04 AUDIO
TITLE "Pride (A Deeper Love) (Original Mix)"
PERFORMER "Moreno Pezzolato"
REM ALBUM "Pride (A Deeper Love)"
INDEX 01 20:17:00
TRACK 05 AUDIO
TITLE "Don't Take Your Love from Me (Extended Mix)"
PERFORMER "NiCe7"
INDEX 01 27:06:00
TRACK 06 AUDIO
TITLE "Love Me (Original Mix)"
PERFORMER "OFFAIAH"
REM ALBUM "Love Me"
INDEX 01 33:36:00
TRACK 07 AUDIO
TITLE "Yearning (Original Mix)"
PERFORMER "Roog"
INDEX 01 40:16:00
TRACK 08 AUDIO
TITLE "RYOKER - CLOSE TO ME ft. Nino Lucarelli (Radio ..."
PERFORMER "RYOKER"
REM ALBUM "CLOSE TO ME (ft Nino Lucarelli)"
INDEX 01 44:38:00
TRACK 09 AUDIO
TITLE "Keep It On (Original Mix)"
PERFORMER "Roter & Lewis"
INDEX 01 48:07:00
TRACK 10 AUDIO
TITLE "I Can Handle It feat. Liz Hill (Gianni Bini & Fabio Vela Extended Old School Mix)"
PERFORMER "Liz Hill, Fabio Vela"
REM ALBUM "I Can Handle It - Gianni Bini & Fabio Vela Extended Old School Mix"
INDEX 01 53:17:00
TRACK 11 AUDIO
TITLE "Everything She Wants (Extended Mix)"
PERFORMER "Kelvin Sylvester & Lee Wilson"
INDEX 01 59:58:00
TRACK 12 AUDIO
TITLE "Parade House (Original Mix)"
PERFORMER "Ruben Mandolini"
INDEX 01 65:46:00
TRACK 13 AUDIO
TITLE "Twenty Four"
PERFORMER "Claborg"
INDEX 01 73:04:00
TRACK 14 AUDIO
TITLE "Let Me Love You (Extended Mix)"
PERFORMER "Weiss (UK)"
INDEX 01 79:00:00
TRACK 15 AUDIO
TITLE "Funky People (Superlover Vocal Mix)"
PERFORMER "Superlover, Simion"
REM ALBUM "Funky People"
INDEX 01 85:34:00
TRACK 16 AUDIO
TITLE "Forbidden Garden (Tim Green Remix)"
PERFORMER "Sebastien Leger"
INDEX 01 91:38:00
TRACK 17 AUDIO
TITLE "Riding High (Extended Mix)"
PERFORMER "Milk & Sugar, Andrey Exx & Alice Russell"
INDEX 01 95:34:00
TRACK 18 AUDIO
TITLE "Be Someone (Extended Mix)"
PERFORMER "CamelPhat & Jake Bugg"
REM ALBUM "Be Someone"
INDEX 01 101:17:00
TRACK 19 AUDIO
TITLE "Incapable "
PERFORMER "Róisín Murphy"
INDEX 01 107:56:00
TRACK 20 AUDIO
TITLE "New York City (DJ Fresh Edit)"
PERFORMER "Kylie"
REM ALBUM "New York City - Remixes"
INDEX 01 112:44:00

Comments(0)

Log in to comment